#TITLE:All American Girl;
#SUBTITLE:;
#ARTIST:Carrie Underwood;
#TITLETRANSLIT:All American Girl;
#SUBTITLETRANSLIT:;
#ARTISTTRANSLIT:Carrie Underwood;
#CREDIT:;
#BANNER:All American Girl-bn.png;
#BACKGROUND:All American Girl-bg.png;
#LYRICSPATH:;
#CDTITLE:pm4cd.png;
#MUSIC:All American Girl.mp3;
#OFFSET:-0.100;
#SAMPLESTART:59.260;
#SAMPLELENGTH:20.000;
#SELECTABLE:YES;
#BPMS:0.000=124.000,357.250=248.000,359.750=124.000;
#STOPS:;
#BGCHANGES:;
// cache tags:
#FIRSTBEAT:1.250;
#LASTBEAT:431.250;
#SONGFILENAME:Songs/Music V.I.P ^_^/All American Girl/All American Girl.sm;
#HASMUSIC:1;
#HASBANNER:1;
#MUSICLENGTH:212.271;
// end cache tags

//---------------dance-single - ----------------
#NOTES:
     dance-single:
     :
     Hard:
     11:
     0.970,1.000,1.000,0.193,1.000,846.000,463.000,41.000,0.000,251.000:
0000
0000
0000
0000
0000
1001
0000
0100
0000
0010
0000
0100
0000
1001
0000
0010
,
0000
0100
0000
0001
0000
1010
0000
0100
0000
0010
0000
0101
0000
1100
0000
0010
,
0000
1010
1100
0110
0011
1001
0000
0100
0000
0001
0000
0010
0000
0101
0000
0010
,
0000
0001
0000
1000
0000
0110
0000
1001
0000
1000
0000
0001
0000
1010
0000
0011
,
0000
0110
0000
1100
0000
1011
0000
0100
0000
0001
0000
0010
0000
1100
0000
0010
,
0000
0001
0000
0010
0000
0101
0000
0010
0000
1000
0000
0100
0000
0011
0000
0100
,
0000
0001
0000
0010
0000
1001
0000
0100
0000
1000
0000
0100
0000
0101
0000
0100
,
0000
0010
0000
1000
0000
0110
0000
0001
0000
1000
0000
0100
0000
0011
0000
0100
,
0000
0001
0000
1000
0000
0110
0000
1000
0000
0100
0000
0010
0000
1001
0000
0010
,
0000
0100
0000
1000
0000
0110
0000
0001
0000
1000
0000
0001
0000
1010
0000
0100
,
0000
0010
0000
1000
0000
0011
0000
1000
0000
0200
0000
0010
0000
1001
0000
0010
,
0000
0001
0000
0010
0000
1001
0000
1000
0000
0320
0000
0100
0000
1001
0000
0100
,
0000
1000
0000
0001
0000
1130
0000
0001
0000
0110
0000
0110
0000
1001
0000
0010
,
0000
0100
0000
0010
0000
1100
0000
0010
0000
0001
0000
0100
0000
1010
0000
0001
,
0000
0010
0000
1000
0000
0011
0000
0100
0000
1000
0000
0100
0000
0001
0000
0100
,
0000
0001
0000
1000
0000
0010
0000
0100
0000
1000
0000
0010
0000
0100
0000
0010
,
0000
0001
0000
0100
0000
0001
0000
0100
0000
0010
0000
0001
0000
0010
0000
0100
,
0000
1000
0000
0100
0000
0001
0000
0100
0000
0010
0000
0001
0000
1000
0000
0100
,
0000
0010
0000
0001
0000
0100
0000
0010
0000
0002
0000
0010
0000
0100
0000
1000
,
0000
0100
0000
0010
0000
2003
0000
0100
0000
0010
0000
0001
0000
0010
0000
0100
,
0000
0010
0000
0001
0000
0010
0000
3100
0000
1000
0000
0100
0000
0010
0000
0001
,
0000
0010
0000
0001
0000
0010
0000
0111
0000
1000
0000
0100
0000
1000
0000
0111
,
0000
0010
0000
1001
0000
1110
0000
0001
0000
0110
0000
1000
0000
1010
0000
0100
,
0000
0101
0000
0001
0000
0011
0000
0100
0000
0110
0000
1000
0000
0101
0000
0100
,
0000
1100
0000
0001
0000
1010
0000
0100
0000
0011
0000
0100
0000
1001
0000
0010
,
0000
1010
0000
1000
0000
0012
0000
1000
0000
1100
0000
0100
0000
0110
0000
0010
,
0000
1013
0000
0100
0000
1100
0000
0001
0000
0101
0000
0010
0000
1001
0000
0100
,
0000
0101
0000
0010
0000
1100
0000
0001
0000
1010
0000
0100
0000
0011
0000
1000
,
0000
1001
0000
0010
0000
1011
0000
0100
0000
0101
0000
0010
0000
1001
0000
0100
,
0000
0011
0000
1000
0000
0110
0000
0011
0110
1100
0000
0001
0000
0110
1001
0110
,
0000
1100
0110
0011
0110
1102
0000
0010
0000
1010
0000
0100
0000
0010
0000
1000
,
0000
0110
0000
0100
0000
1000
0000
0100
0000
1010
0000
0100
0000
1000
0000
0010
,
0000
0113
0000
0001
0000
0100
0000
0010
0000
1001
0000
0010
0000
0001
0000
0100
,
0000
1010
0000
0100
0000
2000
0000
0010
0000
0101
0000
0010
0000
0001
0000
0100
,
0000
3011
0000
0100
0000
1020
0000
0100
0000
1001
0000
1000
0000
0001
0000
1000
,
0000
1100
0000
0001
0000
0130
0000
0001
0000
0110
0000
0010
0000
0001
0000
0100
,
0000
1010
0000
0100
0000
1011
0000
0100
0000
1001
0000
0000
0000
1101
0000
0010
,
0000
1001
0000
0000
0000
1110
0000
0001
0000
1010
0000
0000
0000
0111
0000
1000
,
0000
0101
0000
1100
1010
1100
0000
0010
0000
2102
0000
0010
0000
0100
0000
0010
,
0000
0110
0000
0100
0000
0010
0000
0100
0000
0110
0000
0010
0000
0100
0000
0010
,
0000
3223
0000
0001
0000
1000
0000
0001
0000
1001
0000
1000
0000
0001
0000
1001
,
0000
1001
0000
1001
0000
2332
0000
0100
0000
0010
0000
0000
0000
0100
0000
0010
,
0000
0100
0000
0000
0000
3113
0000
1000
0000
0101
0000
0010
0000
1001
0000
0010
,
0000
1100
0000
0001
0000
1001
0000
0100
0000
0101
0000
0100
0000
1100
0000
0001
,
0000
1010
0000
0100
0000
0011
0000
1000
0000
0101
0000
0010
0000
1001
0000
0100
,
0000
0011
0000
0001
0000
1010
0000
0100
0000
0011
0000
1000
0000
1001
0000
0100
,
0000
0011
0000
0100
0000
1010
0000
0001
0000
1100
0000
0010
0000
0102
0000
0010
,
0000
1100
0000
0100
0000
0110
0000
0010
0000
1010
0000
0100
0000
1100
0000
0010
,
0000
0110
0000
1000
0000
1023
0000
0100
0000
0101
0000
1000
0000
1001
0000
1100
,
0000
0100
0000
0001
0000
1031
0000
0100
0000
0011
0000
0100
0000
1010
0000
0101
,
0000
1001
0000
1100
0000
0110
0000
1000
0000
0101
0000
0010
0000
1100
0000
0001
,
0000
0101
0000
0010
0000
1100
0000
0001
0000
0101
0000
1000
0000
1100
0000
0110
,
0000
0101
0000
0010
0000
1001
0000
0100
0000
0011
0000
1000
0000
1001
0000
0010
,
0000
0101
0000
0100
0000
1100
0000
0001
0000
0110
0000
1000
0000
0101
0000
0110
,
0000
1001
0000
0100
0000
0011
0000
1000
0000
1200
0000
0001
0000
0011
0000
0010
,
0000
1001
0000
0010
0000
2310
0000
0100
0000
0101
0000
0010
0000
0110
0000
0001
,
0000
0011
0000
0100
0000
3202
0000
0000
0000
1013
0000
0001
0000
0011
0000
0010
,
0000
1010
0000
0001
0000
0021
0300
0100
0000
0101
0000
1000
0000
1100
0101
1100
,
0000
1001
0000
0100
0000
1131
0000
1000
0000
0101
0000
0010
0000
1110
0000
0001
,
0000
1010
0000
0100
0000
1011
0000
0100
0000
0011
0000
1000
0000
0101
0000
0010
,
0000
1010
0000
0001
0000
1110
0000
1000
0000
1100
0000
0010
0000
1101
0000
0001
,
0000
0110
0000
0100
0000
0012
0000
0100
0000
0110
0000
1000
0000
0010
0000
0100
,
0010
1103
0000
0101
0000
1101
0000
0010
0000
1100
0000
0001
0000
1110
0000
1000
,
0000
0101
0000
0010
0000
1101
0000
0001
0000
0011
0000
1000
0000
0101
0000
0010
,
0000
1100
0000
0001
0000
1101
0000
0010
0000
1001
0000
1000
0000
1100
0000
0010
,
0000
0101
0000
0001
0000
1001
0000
1001
0000
1021
0000
1001
0100
1001
0000
1001
,
0100
1000
0100
1001
0130
1111
0000
1000
0000
0121
0000
1000
0000
1100
0000
0001
,
0000
0101
0000
1000
0000
1001
0000
0100
0000
0101
0000
0001
0000
1100
0000
0100
,
0000
1001
0000
0100
0000
1100
0000
0001
0000
0101
0000
1000
0000
1001
0000
0100
,
0000
1100
0000
0001
0000
0231
0000
1000
0000
1001
0000
0010
0000
0011
0000
1000
,
0000
1001
0000
0010
0000
2310
0000
0001
0000
0101
0000
0010
0000
0110
0000
0001
,
0000
0011
0000
0100
0000
0101
0000
0010
0000
0011
0000
0100
0000
0101
0000
0001
,
0000
0011
0000
0010
0000
3111
0000
1000
0000
0110
0000
0000
0000
1110
0000
0001
,
0000
0110
0000
0000
0000
1101
0000
0110
0000
1101
0000
0000
0000
1011
0000
0101
,
1010
0101
0000
0010
0000
1101
0000
0011
0000
0110
0000
1100
0000
1001
0000
0101
,
0000
1010
0000
1001
0000
0110
0000
0101
0000
1010
0000
1001
0000
0011
0000
1010
,
0000
1100
0000
0101
0000
0011
0000
1001
0000
1010
0000
1100
0000
1001
0000
0101
,
0000
0011
0000
1001
0000
0101
0000
1010
0000
0101
0000
1100
0110
0011
0000
1100
,
0000
1001
0000
0110
0000
2101
0000
0011
0000
0101
0000
0110
0000
0011
0000
0101
,
0000
0110
0000
0101
0000
0011
0000
0110
0000
0101
0000
0011
0000
3110
0000
1001
,
0000
0110
0000
1001
0000
1111
0000
1010
0000
1010
0000
0101
0000
0101
0000
0110
,
0000
0110
0000
1001
0000
2002
0000
0100
0000
0010
0000
0100
0000
0010
0000
0100
,
0000
0010
0000
0100
0000
0010
0000
0100
0000
0010
0000
0100
0000
0010
0000
0100
,
0000
3013
0000
0001
0000
1110
0000
0001
0000
0110
0000
1000
0000
0101
0000
0001
,
0000
1100
0000
0010
0000
0101
0000
1110
0000
0110
0000
0001
0000
1010
0000
0100
,
0000
0011
0000
1000
0000
1001
0000
0100
0000
0011
0000
0100
0000
2010
0000
0001
,
0000
0110
0000
0001
0000
0011
0000
3111
0000
1000
0000
0101
0000
0010
0000
1020
,
0000
1000
0000
0101
0000
1000
0000
1100
0000
0001
0000
1001
0000
0100
0000
0101
,
0000
1030
0000
0110
0000
0001
0000
1100
0000
0001
0000
0101
0000
0010
0000
0100
,
0000
1001
0000
1001
0000
0200
0000
0000
0000
0000
0000
0000
0000
0000
0000
1321
,
0000
0000
0000
0000
0000
0001
0000
0131
0000
1001
0101
0011
0000
0101
0000
1101
,
0000
0110
0000
1100
0000
1001
0000
0111
0000
1100
0000
0110
0000
1100
0000
1101
,
0000
0011
0000
0101
0000
1001
0000
1011
0000
1001
0000
0102
0000
0110
0000
1110
,
0000
1010
0000
1100
0000
0110
0000
1110
0000
1100
0003
0121
0000
1100
0000
1101
,
0000
0101
0000
1001
0000
1100
0000
1101
0000
0101
0000
1001
0030
0011
0000
1110
,
0000
0011
0000
1001
0000
1100
0000
0111
0000
1001
0000
1110
0000
1011
0000
0111
,
0000
0000
0000
0111
0000
1101
0000
1110
0000
0000
0000
1101
0000
0111
0000
1011
,
0000
0000
0000
1101
0000
1110
0000
1111
0111
1111
0111
1111
0000
1100
0000
1012
,
0000
0110
0000
1010
0000
1100
0000
1110
0000
0110
0000
1100
0000
0110
0000
1110
,
0000
1100
0000
1010
0000
0110
0000
1110
0000
0110
0000
1123
0000
0101
0000
1101
,
0000
0101
0000
1100
0000
1001
0000
1101
0000
0101
0000
1131
0000
0110
0000
1101
,
1101
1111
0000
1011
0000
0100
0000
1011
0000
0100
0000
1011
0000
0001
0000
1210
,
0000
1001
0000
0011
0000
1010
0000
1011
0000
0011
0000
1001
0000
1010
0000
1011
,
0000
1001
0000
0011
0000
1010
0000
1011
0000
1010
0000
1311
0000
0011
0000
0011
,
0000
1110
0000
0110
0000
0110
0000
1101
0000
1100
0000
1111
0000
1001
0110
1001
,
0000
0011
0000
1100
0000
0011
0000
1010
0000
0101
0000
2220
0000
0000
0000
0000
,
0000
0000
0000
0000
,
0000
0000
0000
0000
0000
0000
0000
0000
0000
0000
0000
0000
0000
3330
0000
0000
;

//---------------dance-single - ----------------
#NOTES:
     dance-single:
     :
     Medium:
     1:
     0.000,0.000,0.000,0.000,0.000,0.000,0.000,0.000,0.000,0.000:
0000
0000
0000
0000
;

//---------------dance-single - ----------------
#NOTES:
     dance-single:
     :
     Easy:
     1:
     0.000,0.000,0.000,0.000,0.000,0.000,0.000,0.000,0.000,0.000:
0000
0000
0000
0000
;
